INSBITZ

토렌트 > 영화 > 더 울프 오브 월 스트리트 The Wolf of Wall Street 2013 DVDSCR X264 AAC-COBRA.torrent [토렌트 인스비츠]

  • X

    Login

    처음방문하신 분은 먼저 회원가입을 하신후
    이용하여 주시기 바랍니다.
    ID:
    Password:



인기자료

 영화 토렌트 더 울프 오브 월 스트리트 The Wolf of Wall Street 2013 DVDSCR X264 AAC-COBRA

페이지 정보

작성자
데이즈
작성일14-01-11 19:40 조회1,638회 댓글0건

첨부파일

  • 더 울프 오브 월 스트리트 The Wolf of Wall Street 2013 DVDSCR X264 AAC-COBRA[직접다운로드]
  • 첨부 토렌트하이-The%20Wolf%20of%20Wall%20Street%202013%20DVDSCR%20X264%20AAC-COBRA-.torrent
TAG : 더 울프 오브 월 스트리트

본문

토렌트
The Wolf of Wall Street 2013 DVDSCR X264 AAC-COBRA

dyhr.png

The Wolf of Wall Street 2013 DVDSCR X264 AAC-COBRA

1FintKJy.jpeg

IMDB
http://www.imdb.com/title/tt0993846/

File size                        : 1.52 GiB
Duration                         : 2h 59mn
Overall bit rate                 : 1 211 Kbps


Video
ID                               : 1
Format                           : AVC
Format/Info                      : Advanced Video Codec
Format profile                   : High@L3.0
Format settings, CABAC           : Yes
Format settings, ReFrames        : 5 frames
Format settings, GOP             : M=4, N=24
Codec ID                         : avc1
Codec ID/Info                    : Advanced Video Coding
Duration                         : 2h 59mn
Bit rate mode                    : Variable
Bit rate                         : 1 050 Kbps
Maximum bit rate                 : 5 576 Kbps
Width                            : 720 pixels
Height                           : 304 pixels
Display aspect ratio             : 2.35:1
Frame rate mode                  : Constant
Frame rate                       : 23.976 fps
Color space                      : YUV
Chroma subsampling               : 4:2:0
Bit depth                        : 8 bits
Scan type                        : Progressive
Bits/(Pixel*Frame)               : 0.200
Stream size                      : 1.32 GiB (87%)
Writing library                  : x264 core 138 r2358 9e941d1


Audio
ID                               : 2
Format                           : AAC
Format/Info                      : Advanced Audio Codec
Format profile                   : LC
Codec ID                         : 40
Duration                         : 2h 59mn
Bit rate mode                    : Variable
Bit rate                         : 157 Kbps
Maximum bit rate                 : 267 Kbps
Channel(s)                       : 2 channels
Channel positions                : Front: L R
Sampling rate                    : 48.0 KHz
Compression mode                 : Lossy
Stream size                      : 202 MiB (13%)


source > > > > > > DVDScr x264-HaM.... Thanks

sample provided

Screenshots :

20NOUoM0.png

6qo5szG6.png

qQIrRU9i.png

kgGg5Dcm.png

wvyLGdRH.png

VLCG5deN.png

qlSAemm.png
  • 토렌트하이-The%20Wolf%20of%20Wall%20Street%202013%20DVDSCR%20X264%20AAC-COBRA-.torrent   토렌트 정보
    *토렌트명 : The Wolf of Wall Street 2013 DVDSCR X264 AAC-COBRA
    *파일크기 : 1.5GB
    *파일내용
    1. Uploaded by TheKing.txt 0.1KB
    2. The.Wolf.of.Wall.Street.2013.DVDSCR.X264.AAC-COBRA.mp4 1.5GB
    3. The.Wolf.of.Wall.Street.2013.DVDSCR.X264.AAC-COBRA Sample.mp4 24.6MB
  • 댓글목록

    등록된 댓글이 없습니다.

    Total 50,032건 2 페이지
    게시물 검색
      인기검색어 :   추천분류 :  드라마  한국영화  액션/무협  SF/판타지  멜로/로멘틱  공포/스릴러  아동/가족  코미디  전쟁  다큐  일반
    영화 목록
    번호 제목 용량 글쓴이 날짜 조회
    50009 [일반]   [코미디] 고양이 사무라이 猫侍 Neko.Zamurai.2014.JAP.BDRip.x264.AC3 ADiOS 새글인기글첨부파일 1.5GB 데이즈 07-26 391
    50008 [일반]   나이트 오브 데몬스 (2009) 새글첨부파일 4.4GB 데이즈 07-26 65
    50007 [일반]   [자막]소림싸커주성치 새글인기글첨부파일 1.4GB 데이즈 07-26 119
    50006 [코미디]   고양이 사무라이 猫侍 Neko.Zamurai.2014.JAP.BDRip.x264.AC3-ADiOS 새글인기글첨부파일 1.5GB 데이즈 07-26 225
    50005 [공포]   [자막]바이로케이션 バイロケーション Bilocation 2013 720p BRRip x264 AAC-JYK 새글인기글첨부파일 3GB 데이즈 07-26 137
    50004 [코미디]   프리키 프라이데이 Freaky.Friday.2003.720p.WEB-DL.H264.DD5.1-HDCLUB 새글첨부파일 3GB 데이즈 07-26 51
    50003 [일반]   [자막]쌍자신투Twins.Mission.2007.720p.HDTV.x264.AC3 SILI 댓글1 새글인기글첨부파일 1.4GB 데이즈 07-26 210
    50002 [드라마]   .Atlantis 바다의 오페라 1991 새글첨부파일 1.6GB 데이즈 07-26 51
    50001 [일반]   영구 영화영구홀로집에 [상,하] 새글인기글첨부파일 838.9MB 데이즈 07-26 151
    50000 [일반]   더 시그널 The Signal 2014 720p KORSUB XVID VAiN 댓글1 새글인기글첨부파일 2GB 데이즈 07-26 441
    49999 [일반]   그린호넷그린 호넷 DVDR5자막有 새글인기글첨부파일 1.5GB 데이즈 07-26 260
    49998 [일반]   navel.2012Navel.2012.KOREA.720p.HDRip.x264.AC3 JYK.mkv 새글인기글첨부파일 1.8GB 데이즈 07-26 194
    49997 [액션/무협]   [자막]쌍자신투(雙子神偸) Twins.Mission.2007.720p.HDTV.x264.AC3-SILI 새글인기글첨부파일 1.4GB 데이즈 07-26 165
    49996 [스릴러]   프롬 헬 From.Hell.2001.720p.BluRay.DTS.x264-ESiR 새글첨부파일 4.4GB 데이즈 07-26 65
    49995 [공포]   바이로케이션 Bilocation.2013.2in1.1080p.BluRay.x264-WiKi 새글인기글첨부파일 10.1GB 데이즈 07-26 117
    49994 [스릴러]   브로큰 임브레이스 broken.embraces.2009.720p.bluray.x264.anoxmous 새글첨부파일 1012.9MB 데이즈 07-26 65
    49993 [일반]   [영화] [스릴러] 라자루스 프로젝트 The.Lazarus.Project.2008.1080p.BluRay.x264 BestHD 새글첨부파일 8GB 데이즈 07-26 89
    49992 [일반]   [자막][액션] 금의대협(金衣大俠) The.Golden.Knight.1970.UpScaled.DVDRip.x264.AC3 SILI 새글첨부파일 1.4GB 데이즈 07-26 84
    49991 [일반]   [자막][13층]누구도 생각못한 세상 저편의 세상. SF 스릴러 대작 새글인기글첨부파일 4.3GB 데이즈 07-26 1098
    49990 [SF/판타지]   [자막]다이버전트 Divergent 2014 720p BRRip x264 AAC-JYK 새글인기글첨부파일 3.2GB 데이즈 07-26 687
    49989 [일반]   KICK (2014) [1CD] DVDSCR Rip Xvid Mp3 TeamTNT Exclusive 새글인기글첨부파일 701.8MB 데이즈 07-26 223
    49988 [한국영화]   열애 Passionate.2014.HDRip.Dvix.720p-TCO 새글인기글첨부파일 2.4GB 데이즈 07-26 1578
    49987 [일반]   쫓는자.쫓기는자.part-18.BluRay.1080p.DTS.x264 새글인기글첨부파일 6.7GB 데이즈 07-26 248